Меню юзера
Опрос
Какая у вас ОС?

SeVen
Vista
XP
MacOs
Linux/Unix


Новости

  Duston McGroarty - Native Ads Academy

Author Автор: VnRuEn | Date Дата: 8 ноября 2018| Views Просмотров: 0

В разделе: - [Информация]



Duston McGroarty - Native Ads Academy
Duston McGroarty - Native Ads Academy
WEBRip | English | MP4 + PDF Guides | 1280 x 662 | AVC ~536 Kbps | 25 fps
AAC | 96 Kbps | 44.1 KHz | 1 channel | ~17 hours | 7.93 GB
Genre: eLearning Video / Business, Sales, Marketing

Yes Duston, I want to make $1,000 per day as an affiliate with native ads WITHOUT spending a boatload of money! Please enroll me now!


General
Complete name : 03-Native Ad Secrets Coaching Session #3.MP4
Format : MPEG-4
Format profile : Base Media / Version 2
Codec ID : mp42 (isom/mp42)
File size : 557 MiB
Duration : 2 h 2 min
Overall bit rate mode : Variable
Overall bit rate : 637 kb/s
Collection : www.getwsodo.com
Season : 0
Part : 0
Track name : 03-Native Ad Secrets Coaching Session #3
AppleStoreCatalogID : 0
Xtra : WM/Category

Video
ID : 1
Format : AVC
Format/Info : Advanced Video Codec
Format profile :
Format settings : CABAC / 1 Ref Frames
Format settings, CABAC : Yes
Format settings, RefFrames : 1 frame
Format settings, GOP : M=1, N=60
Codec ID : avc1
Codec ID/Info : Advanced Video Coding
Duration : 2 h 2 min
Bit rate : 536 kb/s
Maximum bit rate : 5 093 kb/s
Width : 1 280 pixels
Height : 662 pixels
Display aspect ratio : 1.934
Frame rate mode : Constant
Frame rate : 25.000 FPS
Color space : YUV
Chroma subsampling : 4:2:0
Bit depth : 8 bits
Scan type : Progressive
Bits/(Pixel*Frame) : 0.025
Stream size : 469 MiB (84%)
Tagged date : UTC 2018-07-19 13:44:58
Color range : Limited
Color primaries : BT.709
Transfer characteristics : BT.709
Matrix coefficients : BT.709
Menus : 3

Audio
ID : 2
Format : AAC
Format/Info : Advanced Audio Codec
Format profile : LC
Codec ID : mp4a-40-2
Duration : 2 h 2 min
Bit rate mode : Variable
Bit rate : 96.0 kb/s
Maximum bit rate : 101 kb/s
Channel(s) : 1 channel
Channel positions : Front: C
Sampling rate : 44.1 kHz
Frame rate : 43.066 FPS (1024 SPF)
Compression mode : Lossy
Stream size : 83.9 MiB (15%)
Title : IsoMedia File Produced by Google, 5-11-2011
Encoded date : UTC 2018-07-19 13:44:48
Tagged date : UTC 2018-07-19 13:44:58

Menu
ID : 3
Codec ID : text
Duration : 2 h 2 min
Encoded date : UTC 2018-08-20 12:05:32
Tagged date : UTC 2018-08-20 12:05:32
Menu For : 1
00:00:00.000 : Chapter 1

Duston McGroarty - Native Ads Academy
DOWNLOAD
(Buy premium account for maximum speed and resuming ability)






Популярные файлы
Реклама